Netphoria Message Board

Netphoria Message Board (http://forums.netphoria.org/index.php)
-   Pumpkins Archive (http://forums.netphoria.org/forumdisplay.php?f=20)
-   -   anyone ever make a cue for QaoS? (http://forums.netphoria.org/showthread.php?t=151556)

Bobbin TB 10-17-2007 07:24 PM

anyone ever make a cue for QaoS?
 
i still just have the big files and couldnt find a cue when i searched the forums. and if there is a cue i dont want my files to not be congruent with everyone elses.

redbull 10-17-2007 07:26 PM

i don't think so...nobody ever did a fix job on it either....

Bobbin TB 10-17-2007 07:37 PM

lazy bastards!

T&T 10-17-2007 09:36 PM

i started working on this today.... did some extrapolation to find all the clicks
but i'd rather remove them by hand then let a plug in do them
gimme till the weekend...



here are cue files for side A & side B that were uploaded by a netphorian earlier
http://www.sendspace.com/file/1hrsfl


it was actually seeing you put together the b-Sides compilation that inspiered me to contribute a little more... :)

yoshinobu's revenge 10-17-2007 11:40 PM

i have 2 cue files but i got them here so they're probably the same

a:

TITLE "Quiet and Other Songs"
PERFORMER "Smashing Pumpkins"
FILE "side a.flac" MP3
TRACK 01 AUDIO
TITLE "quiet"
PERFORMER "Smashing Pumpkins"
INDEX 01 00:19:00
TRACK 02 AUDIO
TITLE "kitty kat"
PERFORMER "Smashing Pumpkins"
INDEX 01 03:53:00
TRACK 03 AUDIO
TITLE "cherub rock"
PERFORMER "Smashing Pumpkins"
INDEX 01 09:15:00
TRACK 04 AUDIO
TITLE "suicide kiss"
PERFORMER "Smashing Pumpkins"
INDEX 01 14:04:00
TRACK 05 AUDIO
TITLE "today"
PERFORMER "Smashing Pumpkins"
INDEX 01 19:03:00
TRACK 06 AUDIO
TITLE "disarm"
PERFORMER "Smashing Pumpkins"
INDEX 01 22:34:00
TRACK 07 AUDIO
TITLE "rocket"
PERFORMER "Smashing Pumpkins"
INDEX 01 25:32:00
TRACK 08 AUDIO
TITLE "spaceboy"
PERFORMER "Smashing Pumpkins"
INDEX 01 29:52:00
TRACK 09 AUDIO
TITLE "set the ray to jerry"
PERFORMER "Smashing Pumpkins"
INDEX 01 33:43:00
TRACK 10 AUDIO
TITLE "soma"
PERFORMER "Smashing Pumpkins"
INDEX 01 37:53:00

b:

TITLE "Quiet and Other Songs"
PERFORMER "Smashing Pumpkins"
FILE "side b.flac" MP3
TRACK 01 AUDIO
TITLE "whirl"
PERFORMER "Smashing Pumpkins"
INDEX 01 00:45:00
TRACK 02 AUDIO
TITLE "doorstep"
PERFORMER "Smashing Pumpkins"
INDEX 01 05:35:00
TRACK 03 AUDIO
TITLE "pissant"
PERFORMER "Smashing Pumpkins"
INDEX 01 08:19:00
TRACK 04 AUDIO
TITLE "tulips"
PERFORMER "Smashing Pumpkins"
INDEX 01 11:23:00
TRACK 05 AUDIO
TITLE "blew away"
PERFORMER "Smashing Pumpkins"
INDEX 01 14:48:00
TRACK 06 AUDIO
TITLE "french movie theme"
PERFORMER "Smashing Pumpkins"
INDEX 01 18:20:00
TRACK 07 AUDIO
TITLE "hummer"
PERFORMER "Smashing Pumpkins"
INDEX 01 19:17:00
TRACK 08 AUDIO
TITLE "frail and bedazzled"
PERFORMER "Smashing Pumpkins"
INDEX 01 26:39:00
TRACK 09 AUDIO
TITLE "glynis"
PERFORMER "Smashing Pumpkins"
INDEX 01 30:08:00
TRACK 10 AUDIO
TITLE "she says"
PERFORMER "Smashing Pumpkins"
INDEX 01 34:19:00
TRACK 11 AUDIO
TITLE "sweet sweet"
PERFORMER "Smashing Pumpkins"
INDEX 01 39:21:00
TRACK 12 AUDIO
TITLE "mayoniase"
PERFORMER "Smashing Pumpkins"
INDEX 01 41:29:00

Bobbin TB 10-18-2007 12:12 AM

awesome. thanks guys.

Bobbin TB 10-18-2007 12:17 AM

Quote:

Originally Posted by T&T
it was actually seeing you put together the b-Sides compilation that inspiered me to contribute a little more... :)

wow, thats flattering. thanks. i think it was montys relentless coverage of the fillmore and other shows that got me wanting to help tape some shows and now start this compilation. i keep telling me friends that there really isnt a fan base that compares with the pumpkins' in terms of camaraderie/obsessiveness . it feels good to be contributing for once instead of just taking.


All times are GMT -4. The time now is 02:04 PM.

Powered by vBulletin® Version 3.6.8
Copyright ©2000 - 2022, Jelsoft Enterprises Ltd.

Smashing Pumpkins, Alternative Music
& General Discussion Message Board and Forums
www.netphoria.org - Copyright 1998-2022